The Predator 2018 1080p HC HDRip x265 HE Torrent Free Download

Seeders : 343   &   Leechers : 956      09-11-2018 (1 week)
The Predator 2018 1080p HC HDRip x265 HE Torrent Download
Added: ago by g3m696 ***** in Movies   640.9 MB   Hits : 24
Info Hash: 2AAB06A16D54110EC1285366D0932856B0EA4F0E Download
The Predator 2018 1080p HC HDRip x265 HE Torrent Download

Anonymous and Direct Download movies , software , shows...

Fast Safe Anonymous
movies, software, shows...
The Predator
Action /Adventure /Horror /Sci-Fi /Thriller  .   107 min   5.9/10
Director : Shane Black  
Tags: The  Predator  2018  1080p  HC  HDRip  

Released:
14 Sep 2018
When a young boy accidentally triggers the universe's most lethal hunters' return to Earth, only a ragtag crew of ex-soldiers and a disgruntled scientist can prevent the end of the human race.

Torrent Description



hevcbay.com

Code:

General
Unique ID : 36617217059791516512152390675566888262 (0x1B8C382FF1818589A8DA45D6C5BF0546)
Complete name : The.Predator.2018.1080p.HC.HDRip.x265.HEVCBay.com.mkv
Format : Matroska
Format version : Version 4
File size : 641 MiB
Duration : 1 h 46 min
Overall bit rate : 839 kb/s
Movie name : HEVCBay.com
Encoded date : UTC 2018-11-09 14:27:39
Writing application : hevcbay
Writing library : hevcbay.com / Lavf58.19.102
Comment : Encoded by hevcbay.com
ENCODED-BY : hevcbay.com

Video
ID : 1
Format : HEVC
Format/Info : High Efficiency Video Coding
Format profile : [email protected]@Main
Codec ID : V_MPEGH/ISO/HEVC
Duration : 1 h 46 min
Bit rate : 787 kb/s
Width : 1 920 pixels
Height : 800 pixels
Display aspect ratio : 2.40:1
Frame rate mode : Constant
Frame rate : 30.000 FPS
Color space : YUV
Chroma subsampling : 4:2:0
Bit depth : 8 bits
Bits/(Pixel*Frame) : 0.017
Stream size : 601 MiB (94%)
Writing library : Lavc58.34.100 libx265
Default : Yes
Forced : No
Color range : Limited

Audio
ID : 2
Format : AAC LC SBR PS
Format/Info : Advanced Audio Codec Low Complexity with Spectral Band Replication and Parametric Stereo
Commercial name : HE-AACv2
Format settings : NBC
Codec ID : A_AAC-29
Duration : 1 h 46 min
Bit rate : 48.0 kb/s
Channel(s) : 2 channels
Channel layout : C
Sampling rate : 48.0 kHz
Frame rate : 23.438 FPS (2048 SPF)
Compression mode : Lossy
Delay relative to video : -215 ms
Stream size : 37.7 MiB (6%)
Writing library : Lavc58.34.100 libfdk_aac
Language : English
Default : Yes
Forced : No



http://extraimage.net/image/7Hfc
http://extraimage.net/image/7Hf7
http://extraimage.net/image/7HfE
http://extraimage.net/image/7Hf1
http://extraimage.net/image/7HfO
http://extraimage.net/image/7HfS
http://extraimage.net/image/7Hfq
http://extraimage.net/image/7Hfy
http://extraimage.net/image/7HfL




Sharing Widget


No Comments For This Torrent . Be The First to Comment

You must Login to Comment . Click Here to Login

Menu 1

Some content in menu 1.

The Predator 2018 1080p HC HDRip x265 HEVCBay com mkv (Size: 640.9 MB)
  The Predator 2018 1080p HC HDRip x265 HEVCBay com mkv 640.9 MB
tracker name
udp://tracker.leechers-paradise.org:6969/announce
udp://zer0day.ch:1337/announce
udp://open.demonii.com:1337/announce
udp://tracker.coppersurfer.tk:6969/announce
udp://exodus.desync.com:6969/announce
µTorrent compatible trackers list

Relative Torrents

Torrent Name Size Age SEED LEECH
The Workers Cup 2017 1080p AMZN WEBRip DP5 1 x264-MZABI
Posted by    Trige   in   Movies
8.0 GB 11 seconds 835 178
The Christmas Chronicles 2018 720p NF WERip DD5 1 x264-CM
Posted by    Trige   in   Movies
2.4 GB 11 seconds 298 601
Outlander S04E03 The False Bride 720p NFWEBRip DDP5 1 x264-NTb
Posted by    Trige   in   TV
2.3 GB 2 minutes 261 328
Puppy Star Christmas 2018 720p NF WEBRipDD5 1 x264-CM
Posted by    Trige   in   Movies
2.8 GB 3 minutes 50 594
The Magic Flute 1975 REMASTERED SWEDISH 20p BluRay H264 AAC-VXT
Posted by    Trige   in   Movies
1.7 GB 3 minutes 786 815